Baar Baar Dekho (2016) - 1CD - DVD-Rip - Hindi - x264 - MP3 - Mafiaking - M2Tv

mier_90

Banned
Aug 20, 2008
140
6
0
33
klang,MAS
12d52cf00a_345x518_8db6124faa.jpg




Code:
Ratings: 5.2/10

Genere: Comedy, Drama, Romance 

General
Unique ID : 183672359449717722621258310362284204153 (0x8A2E027BD555630C83F930516B94A079)
Complete name : Baar Baar Dekho (2016) - 1CD - DVD-Rip - Hindi - x264 - MP3 - Mafiaking - M2Tv.mkv
Format : Matroska
Format version : Version 4 / Version 2
File size : 697 MiB
Duration : 2 h 24 min
Overall bit rate : 676 kb/s
Movie name : Baar Baar Dekho (2016) - 1CD - DVD-Rip - Hindi - x264 - MP3 - Mafiaking - M2Tv
Encoded date : UTC 2017-05-19 11:27:34
Writing application : mkvmerge v7.7.0 ('Six Voices') 32bit built on Feb 28 2015 23:23:00
Writing library : libebml v1.3.1 + libmatroska v1.4.2

Video
ID : 1
Format : AVC
Format/Info : Advanced Video Codec
Format profile : [email protected]
Format settings, CABAC : Yes
Format settings, ReFrames : 4 frames
Codec ID : V_MPEG4/ISO/AVC
Duration : 2 h 24 min
Bit rate : 610 kb/s
Width : 640 pixels
Height : 272 pixels
Display aspect ratio : 2.35:1
Frame rate mode : Constant
Frame rate : 23.976 (24000/1001) FPS
Color space : YUV
Chroma subsampling : 4:2:0
Bit depth : 8 bits
Scan type : Progressive
Bits/(Pixel*Frame) : 0.146
Stream size : 629 MiB (90%)
Title : Mafiaking
Language : Hindi
Default : Yes
Forced : No

Audio
ID : 2
Format : MPEG Audio
Format version : Version 2
Format profile : Layer 3
Mode : Joint stereo
Mode extension : MS Stereo
Codec ID : A_MPEG/L3
Codec ID/Hint : MP3
Duration : 2 h 24 min
Bit rate mode : Constant
Bit rate : 64.0 kb/s
Channel(s) : 2 channels
Sampling rate : 24.0 kHz
Frame rate : 41.667 FPS (576 spf)
Compression mode : Lossy
Stream size : 66.0 MiB (9%)
Title : Mafiaking
Language : Hindi
Default : Yes
Forced : No

2ffc99.png
84dd86.png
985dd4.png
7c1b42.png


Download Link

SINGLE DIRECT FAST LINKS

Code:
http://rapidpaid.com/b8155ab8d12496a2/Baar_Baar_Dekho_(2016)_-_1CD_-_DVD-Rip_-_Hindi_-_x264_-_MP3_-_Mafiaking_-_M2Tv.mkv

Code:
http://rapidgator.net/file/2b3b8d5a79000f2a68ec35b26eeb3f2e/Baar_Baar_Dekho_(2016)_-_1CD_-_DVD-Rip_-_Hindi_-_x264_-_MP3_-_Mafiaking_-_M2Tv.mkv.html

Code:
http://nitroflare.com/view/678F6FD6A4DE30D/Baar_Baar_Dekho_%282016%29_-_1CD_-_DVD-Rip_-_Hindi_-_x264_-_MP3_-_Mafiaking_-_M2Tv.mkv