Baahubali 2 (2017) DvDScr x264 Mp3 Multi Audio ESubs Pakistani Bacha [Team ExDR]

mier_90

Banned
Aug 20, 2008
140
6
0
33
klang,MAS
MV5BMjM4ODIyOTE1Ml5BMl5BanBnXkFtZTgwMDgxMTUwMjI@._V1_SY1000_CR0,0,705,1000_AL_.jpg




Code:
General
Complete name               : Baahubali 2 (2017)  DvDScr x264 Mp3 Multi Audio Pakistani Bacha [Team ExDR]
Format                      : Matroska
Format version              : Version 2
File size                   : 2.18 GiB
Duration                    : 2 h 42 min
Overall bit rate mode       : Variable
Overall bit rate            : 1 917 kb/s
Encoded date                : UTC 2017-05-09 04:45:06
Writing application         : mkvmerge v10.0.0 ('To Drown In You') 64bit
Writing library             : libebml v1.3.4 + libmatroska v1.4.5
Source                      : RAW @ TeamExDR
Encoder                     : Pakistani Bacha

Video
ID                          : 1
Format                      : AVC
Format/Info                 : Advanced Video Codec
Format profile              : High [email protected]
Format settings, CABAC      : Yes
Format settings, ReFrames   : 5 frames
Codec ID                    : V_MPEG4/ISO/AVC
Duration                    : 2 h 42 min
Bit rate mode               : Variable
Bit rate                    : 1 658 kb/s
Maximum bit rate            : 62.5 Mb/s
Width                       : 640 pixels
Height                      : 272 pixels
Display aspect ratio        : 2.35:1
Frame rate mode             : Constant
Frame rate                  : 23.976 (24000/1001) FPS
Color space                 : YUV
Chroma subsampling          : 4:2:0
Bit depth                   : 10 bits
Scan type                   : Progressive
Bits/(Pixel*Frame)          : 0.397
Stream size                 : 1.89 GiB (86%)
Title                       : Team ExDR
Writing library             : x264 core 148 r2744 b97ae06
Default                     : Yes
Forced                      : No
Color range                 : Limited
Color primaries             : BT.709
Transfer characteristics    : BT.709
Matrix coefficients         : BT.709

Audio #1
ID                          : 2
Format                      : MPEG Audio
Format version              : Version 2
Format profile              : Layer 3
Mode                        : Joint stereo
Mode extension              : MS Stereo
Codec ID                    : A_MPEG/L3
Codec ID/Hint               : MP3
Duration                    : 2 h 42 min
Bit rate mode               : Constant
Bit rate                    : 64.0 kb/s
Channel(s)                  : 2 channels
Sampling rate               : 24.0 kHz
Frame rate                  : 41.667 FPS (576 spf)
Compression mode            : Lossy
Stream size                 : 74.6 MiB (3%)
Title                       : Team ExDR
Writing library             : LAME3.99r
Encoding settings           : -m j -V 4 -q 2 -lowpass 11 -b 64
Language                    : Hindi
Default                     : Yes
Forced                      : No

Audio #2
ID                          : 3
Format                      : MPEG Audio
Format version              : Version 2
Format profile              : Layer 3
Mode                        : Joint stereo
Mode extension              : MS Stereo
Codec ID                    : A_MPEG/L3
Codec ID/Hint               : MP3
Duration                    : 2 h 42 min
Bit rate mode               : Constant
Bit rate                    : 64.0 kb/s
Channel(s)                  : 2 channels
Sampling rate               : 24.0 kHz
Frame rate                  : 41.667 FPS (576 spf)
Compression mode            : Lossy
Stream size                 : 74.6 MiB (3%)
Title                       : Team ExDR
Writing library             : LAME3.99r
Encoding settings           : -m j -V 4 -q 2 -lowpass 11 -b 64
Language                    : Telugu
Default                     : No
Forced                      : No

Audio #3
ID                          : 4
Format                      : MPEG Audio
Format version              : Version 2
Format profile              : Layer 3
Mode                        : Joint stereo
Mode extension              : MS Stereo
Codec ID                    : A_MPEG/L3
Codec ID/Hint               : MP3
Duration                    : 2 h 42 min
Bit rate mode               : Constant
Bit rate                    : 64.0 kb/s
Channel(s)                  : 2 channels
Sampling rate               : 24.0 kHz
Frame rate                  : 41.667 FPS (576 spf)
Compression mode            : Lossy
Stream size                 : 74.6 MiB (3%)
Title                       : Team ExDR
Writing library             : LAME3.99r
Encoding settings           : -m j -V 4 -q 2 -lowpass 11 -b 64
Language                    : Tamil
Default                     : No
Forced                      : No

Audio #4
ID                          : 5
Format                      : MPEG Audio
Format version              : Version 2
Format profile              : Layer 3
Mode                        : Joint stereo
Mode extension              : MS Stereo
Codec ID                    : A_MPEG/L3
Codec ID/Hint               : MP3
Duration                    : 2 h 42 min
Bit rate mode               : Constant
Bit rate                    : 64.0 kb/s
Channel(s)                  : 2 channels
Sampling rate               : 24.0 kHz
Frame rate                  : 41.667 FPS (576 spf)
Compression mode            : Lossy
Stream size                 : 74.6 MiB (3%)
Title                       : Team ExDR
Writing library             : LAME3.99r
Encoding settings           : -m j -V 4 -q 2 -lowpass 11 -b 64
Language                    : Malayalam
Default                     : No
Forced                      : No

f17918e7a382e6d631db738c7fd82b37.jpg
5c0474696f611a6ffa1bd8f94b25d705.jpg
3740a160da9bd85b6c0d9c499056d689.jpg
f4427bfa885f34d74b494ee94e5e4f8d.jpg
cf947046d687f2d77aef434c2cb24c9d.jpg
3c0a8d0d52c621f4d222fb36d8a85502.jpg
77a8e4ece652a2ee486b25873d212b44.jpg
ec2220e48f21137c9d604b78700dd563.jpg


Download Link

SINGLE DIRECT FAST LINKS

Code:
http://rapidpaid.com/dc1868cd1fe47138/Baahubali_2_(2017)_DvDScr_x264_Mp3_Multi_Audio_Pakistani_Bacha_[Team_ExDR].mkv

Code:
http://nitroflare.com/view/4BCD358989FE76F/Baahubali_2_%282017%29_DvDScr_x264_Mp3_Multi_Audio_Pakistani_Bacha__Team_ExDR_.mkv

Code:
http://rapidgator.net/file/c0aa3c1a58d54f471215a228d38f48b5/Baahubali_2_(2017)_DvDScr_x264_Mp3_Multi_Audio_Pakistani_Bacha_[Team_ExDR].mkv.html