Deadpool 2 (2018) The Super Duper Cut BluRay 10Bit 1080p 7.1 x265 HEVC

Psych

Member
Jul 23, 2014
2,058
507
0
f9iiJRj.png



SCREENSHOTS











MEDIA INFO

Code:
[FONT=Courier New]General
Format                      : Matroska
Format version              : Version 4 / Version 2
File size                   : 3.58 GiB
Duration                    : 2 h 13 min
Overall bit rate            : 3 820 kb/s


Video
Format                      : HEVC
Format/Info                 : High Efficiency Video Coding
Format profile              : Main 10@L4@Main
Codec ID                    : V_MPEGH/ISO/HEVC
Duration                    : 2 h 13 min
Bit rate                    : 3 312 kb/s
Width                       : 1 920 pixels
Height                      : 800 pixels
Display aspect ratio        : 2.40:1
Frame rate mode             : Constant
Frame rate                  : 23.976 (24000/1001) FPS
Color space                 : YUV
Chroma subsampling          : 4:2:0
Bit depth                   : 10 bits
Bits/(Pixel*Frame)          : 0.090


Audio
Format                      : AAC
Format/Info                 : Advanced Audio Codec
Format profile              : LC
Codec ID                    : A_AAC-2
Duration                    : 2 h 13 min
Bit rate                    : 491 kb/s
Channel(s)                  : 8 channels
Channel positions           : Front: L C R, Side: L R, Back: L R, LFE
Sampling rate               : 48.0 kHz
Frame rate                  : 46.875 FPS (1024 SPF)
Language                    : English

Text #1
Format                      : PGS
Muxing mode                 : zlib
Codec ID                    : S_HDMV/PGS
Codec ID/Info               : Picture based subtitle format used on BDs/HD-DVDs
Duration                    : 2 h 13 min
Bit rate                    : 47.9 kb/s
Count of elements           : 4852
Stream size                 : 45.7 MiB (1%)
Language                    : English


Text #2
Format                      : PGS
Muxing mode                 : zlib
Codec ID                    : S_HDMV/PGS
Codec ID/Info               : Picture based subtitle format used on BDs/HD-DVDs
Duration                    : 52 min 55 s
Bit rate                    : 117 b/s
Count of elements           : 8
Stream size                 : 45.5 KiB (0%)
Language                    : English

[/FONT]
SAMPLE

Code:
https://nofile.io/f/m1ER1CnDjeq/Sample.mkv
DOWNLOAD



Code:
https://nofile.io/f/CkvVQ59CuzS/Deadpool+2+(2018)+The+Super+Duper+Cut+BluRay+10Bit+1080p+7.1+x265+HEVC.mkv
 
Last edited: