Deadpool 2 (2018) The Super Duper Cut 1080p Bluray 5.1 x265 HEVC

Psych

Member
Jul 23, 2014
2,058
507
0
f9iiJRj.png

SCREENSHOTS








MEDIA INFO

Code:
[FONT=Courier New]Format                      : Matroska
Format version              : Version 4 / Version 2
File size                   : 3.43 GiB
Duration                    : 2 h 13 min
Overall bit rate            : 3 667 kb/s
Movie name                  : Deadpool 2 2018 The Super Duper Cut 1080p BluRay x264 DTS-HDChina

Video
ID                          : 1
Format                      : HEVC
Format/Info                 : High Efficiency Video Coding
Format profile              : Main 10@L4@Main
Codec ID                    : V_MPEGH/ISO/HEVC
Duration                    : 2 h 13 min
Bit rate                    : 3 330 kb/s
Width                       : 1 920 pixels
Height                      : 800 pixels
Display aspect ratio        : 2.40:1
Frame rate mode             : Constant
Frame rate                  : 23.976 (24000/1001) FPS
Color space                 : YUV
Chroma subsampling          : 4:2:0
Bit depth                   : 10 bits
Bits/(Pixel*Frame)          : 0.090
Stream size                 : 3.12 GiB (91%)

Audio
ID                          : 2
Format                      : AAC
Format/Info                 : Advanced Audio Codec
Format profile              : LC
Codec ID                    : A_AAC-2
Duration                    : 2 h 13 min
Bit rate                    : 319 kb/s
Channel(s)                  : 6 channels
Channel positions           : Front: L C R, Side: L R, LFE
Sampling rate               : 48.0 kHz
Frame rate                  : 46.875 FPS (1024 SPF)
Compression mode            : Lossy
Delay relative to video     : 9 ms
Stream size                 : 306 MiB (9%)
Language                    : English
Default                     : No
Forced                      : No

Text
ID                          : 3
Format                      : PGS
Muxing mode                 : zlib
Codec ID                    : S_HDMV/PGS
Codec ID/Info               : Picture based subtitle format used on BDs/HD-DVDs
Duration                    : 2 h 13 min
Bit rate                    : 47.9 kb/s
Count of elements           : 4852
Stream size                 : 45.7 MiB (1%)
Language                    : English
Default                     : No
Forced                      : No[/FONT]

SAMPLE
Code:
https://nofile.io/f/8WsG0Jy5zTK/Sample.mkv
DOWNLOAD
Code:
https://nofile.io/f/mRWQ6DRnBQT/Deadpool.2.2018.The.Super.Duper.Cut.1080p.BluRay.x265.6CH.mkv
 
Last edited: