Udumbara (2018) DVDRip 2019AM

Sry.com

Well-known member
  • Sep 5, 2014
    3,478
    927
    113
    localhost
    Hoda welawata baanna kalin trailer eka baluwe, meke story eka madhavan ge irudhi suttru wagemane.wenasakata tyenne meke boxing wenuwata tyenne running. :lol:

    Lankawe film walin oita wada ewa balaporoththu wenna epa machn...:lol:
    Mekath loku achvmnt ekak...:rofl:
    Copy - > Past
     

    bandara77

    Well-known member
  • Feb 1, 2009
    2,443
    205
    83
    46
    Oman
    VzLcPdm.jpg


    General
    udumbara.2018.DVDRip.2019AM.mp4
    Format : MPEG-4
    File size : 1.35 GiB
    Duration : 1 h 58 min
    Bit rate : 1 500 kb/s
    Width : 1 280 pixels
    Height : 720 pixels
    Display aspect ratio : 16:9
    Stream size : 1.24 GiB (92%)
    Writing library : x264 core 132

    Audio Format : AAC
    Audio Format/Info : Advanced Audio Codec

    https://openload.co/f/MdVFS4_zYzg/



    හම්බ කරපු සල්ලා මා ලගයි - :angry::rolleyes::P

    Thank you brother
     

    k_town

    Active member
  • Jun 11, 2013
    630
    78
    28
    Lonely Planet
    VzLcPdm.jpg


    General
    udumbara.2018.DVDRip.2019AM.mp4
    Format : MPEG-4
    File size : 1.35 GiB
    Duration : 1 h 58 min
    Bit rate : 1 500 kb/s
    Width : 1 280 pixels
    Height : 720 pixels
    Display aspect ratio : 16:9
    Stream size : 1.24 GiB (92%)
    Writing library : x264 core 132

    Audio Format : AAC
    Audio Format/Info : Advanced Audio Codec

    https://openload.co/f/MdVFS4_zYzg/



    හම්බ කරපු සල්ලා මා ලගයි - :angry::rolleyes::P

    tHANKS Macho!! :):):):)